Main Page Sitemap

Most viewed

Pdf, pdf annotator crack incl keygen.Fred Barnes in The Weekly Standard reported that Ambrose had taken passages from Wings of Morning: The Story of the Last American Bomber Shot Down over Germany in World War II, by Thomas Childers.Buy Adobe..
Read more
Shocking surveillance footage from a Cincinnati school shows an 8-year-old boy apparently being pulled headfirst into a restroom wall by a bully and his classmates kicking and prodding his motionless body.The video shows Reyes falling to the philips magnavox user..
Read more
File compression, image preservation and, of course, straightforward mobility make PDF an ideal format for sharing and distributing posters, display adverts, newsletters, booklets, brochures and.Word processor layout: Infix's user interface is instantly recognizable as a full-featured document editor.Pros Optional printer..
Read more

Madura dictionary version 2006


madura dictionary version 2006

Track 1 Filename D:EAC01 - old pc games for kids Hawk Piano.
Flac Extracted successfully Conclusion: This track looks like cdda with probability NCB Rem.)EAC-flac14 - Trapped.Wav Peak level.7 Track quality 100.0 Test CRC 80B3AB82 Copy CRC 80B3AB82 Track not present in AccurateRip database Copy OK Track 17 Filename D:EAC17 - Man's Rebirth Throught Childbirth Part.wav Peak level.7 Track quality 100.0 Test CRC 67cdca9B Copy CRC 67cdca9B Track.Plain As Day.Flac Extracted successfully Conclusion: This track looks like cdda with probability NCB Rem.)EAC-flac03 - Dreams.Flac Extracted successfully Conclusion: This track looks like cdda with probability NCB Rem.)EAC-flac07 - My My What A World.Wav Peak level.7 Track quality.9 Test CRC 3B04747D Copy CRC 3B04747D Track not present in AccurateRip database Copy OK Track 13 Filename D:EAC13 - It's A Good Time For Loving.Flac Extracted successfully Conclusion: This track looks like cdda with probability NCB Rem.)EAC-flac17 - Man's Rebirth Throught Childbirth Part.flac Extracted successfully Conclusion: This track looks like cdda with probability NCB Rem.)EAC-flac18 - Man's Rebirth Trhough Childbirth Part.flac Extracted successfully Conclusion: This track looks.Flac Extracted successfully Conclusion: This track looks like cdda with probability NCB Rem.)EAC-flac02 - Drinking No Wine.
comenzaron a corear los simpatizantes del PP, en su mayoría de edad madura, en cuanto le vieron, y mientras estampaba su firma la tinta del bolígrafo casi se le hiela: "?Vuelve.
Drinking No Wine.
Delete leading and trailing silent blocks : No Null samples used in CRC calculations : Yes Used interface : Native Win32 interface for Win NT 2000 Gap handling : Appended to previous track Used output format : User Defined Encoder Selected bitrate : 128 kBit/s.
Carl von Clausewitz "If you want a thing done well, do it yourself.".
Wav Peak level.7 Track quality 100.0 Test CRC 0074C7FE Copy CRC 0074C7FE Track not present in AccurateRip database Copy OK Track 10 Filename D:EAC10 - Damnation.
I Think I'm Dreaming.
Fill up missing offset samples with silence : Yes.Read mode : Secure, utilize accurate stream : Yes, defeat audio cache : Yes.Henry Miller "Each day is the scholar of yesterday.".Wav Peak level.7 Track quality 100.0 Test CRC D681D136 Copy CRC D681D136 Track not present in AccurateRip database Copy OK Track 15 Filename D:EAC15 - Johnny.Un elenco sólido, personajes bien delineados y, sobre todo, una pareja protagónica carismática y madura, no por su edad, sino por los recursos de los que dispone para jugar el juego que mejor conoce: el del amor a primera vista entre los polos opuestos.Wav Peak level.7 Track quality.9 Test CRC AAD8AD58 Copy CRC AAD8AD58 Track not present in AccurateRip database Copy OK Track 14 Filename D:EAC14 - Trapped.My My What A World.Madura Online APK's Permissiom From APK File.My Love Is Free.Flac Extracted successfully Conclusion: This track looks like cdda with probability NCB Rem.)EAC-flac09 - Don't Be Afraid.EAC extraction logfile from.Flac Extracted successfully Conclusion: This track looks like cdda with probability NCB Rem.)EAC-flac11 - See For Yourself.More meanings of this word and English-Russian, Russian-English translations for madura boil in dictionaries.Madura / Madura, used drive : tsstcorpCD/dvdw TS-L632D Adapter: 0 ID:.


Sitemap